canvas not supported
Нас вместе: 4 344 532
.ADs Start -->.ADs End -->
.ADs Start -->
.ADs End -->

Оатс: Часть 1 - Ракка / Oats: Volume 1 - Rakka (2017) WEBRip [H.264/1080p-LQ] [AVO]


 
 
RSS
Начать новую тему   Ответить на тему   Торрент-трекер -> Горячие новинки-> Зарубежные Новинки (HD*Rip/LQ, DVDRip)
Полезные
Мои сообщения
Добавить тему в закладки
Torrent activity
Seeders:[ 418  (9,13 MB/s) ]
Leechers:[ 72  (1,43 MB/s) ]
 
  
 
Предыдущая тема :: Следующая тема 
АвторСообщение
BadBajo ®
Стаж: 1 год 5 мес.
Сообщений: 320
Ratio: 457,86
Поблагодарили: 25065
100%
Откуда: Питер
russia.gif
Новое сообщение16 Июн 2017 05:29:05  Заголовок сообщения: Оатс: Часть 1 - Ракка / Oats: Volume 1 - Rakka (2017) WEBRip [H.264/1080p-LQ] [AVO]Ответить с цитатой

Оатс: Часть 1 - Ракка / Oats: Volume 1 - Rakka (2017) WEBRip
Производство: США, Oats Studios
Жанр: Короткометражный, Фантастика, Ужасы

Режиссер: Нил Бломкамп
Актеры: Дакота Фэннинг, Сигурни Уивер, Карли Поуп, Хосе Пабло Кантилльо, Алек Гиллис, Юджин Хумбанйива

Описание:
Человечество столкнулось с новой угрозой- инопланетными ящерами. Ящеры меняют атмосферу на свой лад, уничтожают Землю и истребляют человечество. Лишь небольшим кучкам повстанцев удаётся выжить и дать отпор.



Релиз от: BadBajo

Продолжительность: 00:21:52
Качество видео: WEBRip
Перевод: Авторский (одноголосый, закадровый) - А.Важенин (BadBajo)
Автор перевода: BadBajo, Энигма
Субтитры: Отсутствуют

Видео: AVC/H.264, 1920х1080, ~2622 Kbps
Аудио: MP3, 2 ch, 320 Kbps l Русский AVO, BadBajo
Аудио: AAC, 2 ch, 256 Kbps l Английский

Complete name : \Oats.Studios.Volume.1.Rakka.2017.SHORT.1080p.WEBRip._rus_BadBajo.mkv
Format : Matroska
Format version : Version 4 / Version 2
File size : 501 MiB
Duration : 21 min 52 s
Overall bit rate : 3 201 kb/s
Encoded date : UTC 2017-06-16 02:02:03
Writing application : mkvmerge v9.5.0 ('Quiet Fire') 64bit
Writing library : libebml v1.3.4 + libmatroska v1.4.5
Cover : Yes
Attachments : cover.jpg

Video
ID : 1
Format : AVC
Format/Info : Advanced Video Codec
Format profile : High@L4
Format settings, CABAC : Yes
Format settings, ReFrames : 2 frames
Codec ID : V_MPEG4/ISO/AVC
Duration : 21 min 52 s
Bit rate : 2 622 kb/s
Width : 1 920 pixels
Height : 1 080 pixels
Display aspect ratio : 16:9
Frame rate mode : Constant
Frame rate : 24.000 FPS
Color space : YUV
Chroma subsampling : 4:2:0
Bit depth : 8 bits
Scan type : Progressive
Bits/(Pixel*Frame) : 0.053
Stream size : 410 MiB (82%)
Default : Yes
Forced : No
Color range : Limited
Color primaries : BT.709
Transfer characteristics : BT.709
Matrix coefficients : BT.709

Audio #1
ID : 2
Format : MPEG Audio
Format version : Version 1
Format profile : Layer 3
Mode : Joint stereo
Codec ID : A_MPEG/L3
Codec ID/Hint : MP3
Duration : 21 min 52 s
Bit rate mode : Constant
Bit rate : 320 kb/s
Channel(s) : 2 channels
Sampling rate : 48.0 kHz
Frame rate : 41.667 FPS (1152 spf)
Compression mode : Lossy
Delay relative to video : -43 ms
Stream size : 50.1 MiB (10%)
Title : Oats.Studios.Volume.1.Rakka.2017_rus_BadBajo
Language : Russian
Default : Yes
Forced : Yes

Audio #2
ID : 3
Format : AAC
Format/Info : Advanced Audio Codec
Format profile : LC
Codec ID : A_AAC
Duration : 21 min 52 s
Bit rate : 256 kb/s
Channel(s) : 2 channels
Channel positions : Front: L R
Sampling rate : 48.0 kHz
Frame rate : 46.875 FPS (1024 spf)
Compression mode : Lossy
Delay relative to video : -43 ms
Stream size : 40.1 MiB (8%)
Default : No
Forced : No
Скриншоты:

Все одноименные релизы в Клубе
Время раздачи: Пн-Пт с 18:00 до 22:00 (до появления первых 3-5 скачавших)
[.name]_Oats.Studios.Volume.1.Rakka.2017.SHORT.1080p.WEBRip._rus_BadBajo.mkv.torrent
 Торрент: Платиновая раздача  Зарегистрирован   Примагнититься
Free Leech
Скачать
20 KB
 Зарегистрирован:   16 Июн 2017 05:29:06
 Размер:   501 MB  (Вам доступно: не ограничено во время Free Leech) 
 Рейтинг:  4,6 (Голосов: 44)СуперХорошоСреднеТак себеУбил время
 Поблагодарили:  250  Спасибо   (список)
 Проверка:   Оформление проверено модератором 16 Июн 2017 06:12:08
Как cкачать  ·  Как раздать  ·  Правильно оформить  ·  Поднять ратио!  
Вернуться к началу
Посмотреть профиль Отправить личное сообщение Посетить сайт автора Найти релизы
BadBajo ®
Стаж: 1 год 5 мес.
Сообщений: 320
Ratio: 457,86
Поблагодарили: 25065
100%
Откуда: Питер
russia.gif
Новое сообщение16 Июн 2017 05:29:53  Заголовок сообщения: Ответить с цитатой

IMDb http://www.imdb.com/title/tt6990734/?ref_=ttco_co_tt

_________________
42 is the answer
Вернуться к началу
Посмотреть профиль Отправить личное сообщение Посетить сайт автора Найти релизы0
lapat​nikov​2018​
Стаж: 2 мес. 11 дней
Сообщений: 4
Ratio: 18,599
100%
Новое сообщение16 Июн 2017 08:49:17  Заголовок сообщения: Ответить с цитатой

BadBajo и Энигма спасибо Вам! а можно ещё короткометражки найти от Нила Бломкампа! у него их полно
Вернуться к началу
Посмотреть профиль Отправить личное сообщение 0
thund​erres​istan​t​

Online
Стаж: 6 лет 4 мес.
Сообщений: 306
Ratio: 89,229
Раздал: 1,775 TB
Поблагодарили: 898
100%
Откуда: Млечный Путь
Новое сообщение16 Июн 2017 09:07:43  Заголовок сообщения: Ответить с цитатой

рептилии, в атаку!)

_________________
N fighting in the war room!
Вернуться к началу
Посмотреть профиль Отправить личное сообщение Skype ICQ Number Найти релизы0
milovsky-a
Стаж: 6 лет
Сообщений: 14
Ratio: 2,788
15.77%
Новое сообщение16 Июн 2017 09:21:17  Заголовок сообщения: Ответить с цитатой

смотрел без перевода - занятная короткометражка.
Вернуться к началу
Посмотреть профиль Отправить личное сообщение 0
asker611
Стаж: 6 лет 3 мес.
Сообщений: 360
Ratio: 1,154
7.09%
russia.gif
Новое сообщение16 Июн 2017 09:37:15  Заголовок сообщения: Ответить с цитатой

Рипли мочи чужих!)))Глянем спс.
Вернуться к началу
Посмотреть профиль Отправить личное сообщение 0
parad0xz1k
Стаж: 4 года 1 мес.
Сообщений: 53
Ratio: 29,557
100%
Новое сообщение16 Июн 2017 10:15:09  Заголовок сообщения: Ответить с цитатой

Спасибо за озвучивание. Вчера еще искал. Если попрёт, то будет много таких короткометражек, а в дальнейшем и целый фильм.
Вернуться к началу
Посмотреть профиль Отправить личное сообщение 0
pricehouse
Стаж: 7 лет 4 мес.
Сообщений: 56
Ratio: 12,659
98.52%
Новое сообщение16 Июн 2017 10:20:48  Заголовок сообщения: Ответить с цитатой

Отличная короткометражка! Уровень выше всяких похвал.
Вернуться к началу
Посмотреть профиль Отправить личное сообщение 0
Dimmm2001
Стаж: 7 лет 3 мес.
Сообщений: 77
Ratio: 14,001
Раздал: 222 GB
Поблагодарили: 1
1.98%
Откуда: Алма-Ата
kazakhstan.gif
Новое сообщение16 Июн 2017 10:48:14  Заголовок сообщения: Ответить с цитатой

мне тоже понравилось :да: уровень спецэффектов весьма и весьма.
при желании на этом вроде бы небольшом сюжете можно сделать неплохой сериал.. а тут ещё и Уивер в наличии. ей, как говорится, и флаг в руки :D :стрельба:
ЖДЁМ ПРОДОЛЖЕНИЯ !
Вернуться к началу
Посмотреть профиль Отправить личное сообщение ICQ Number Найти релизы0
Рикошет
 
Стаж: 9 лет 6 мес.
Сообщений: 287
Ratio: 4,957
Поблагодарили: 89
10.18%
Откуда: Москва
logo.gif
Новое сообщение16 Июн 2017 10:57:00  Заголовок сообщения: Ответить с цитатой

Над переводом видимо долго не заморачивались. Есть много моментов, где я вообще смысла не понял сказанных фраз. А голос озвучивающего "бэтмена" (это его имя в конце титров) слушать невозможно.

А сам фильм - Мясо! Видно было, что в "Районе №9" хотели сделать больше жестокости, но их притормозили. Здесь начинают развлекаться.
Вернуться к началу
Посмотреть профиль Отправить личное сообщение Skype ICQ Number Найти релизы0
zadralka
Стаж: 9 лет 8 мес.
Сообщений: 149
Ratio: 0,645
14.18%
Новое сообщение16 Июн 2017 11:53:41  Заголовок сообщения: Ответить с цитатой

ерунда, в нашем мире Gавна и без рептилоидов хватает...похлеще еще будет
Вернуться к началу
Посмотреть профиль Отправить личное сообщение 0
frimax2000

Online
Стаж: 1 год 5 мес.
Сообщений: 29
Ratio: 1,829
5.81%
Новое сообщение16 Июн 2017 11:55:26  Заголовок сообщения: Ответить с цитатой

Просто феерический бред... Чему тут все восхищаются, не пойму. Лучше бы вместо стажа в профиле показывало возраст юзера, это многое прояснило бы.
Вернуться к началу
Посмотреть профиль Отправить личное сообщение 0
Форма быстрого ответа
Внимание!
Мы будем вынуждены лишить Вас права голоса и удалить комментарии, при наличии в них нецензурной брани и оскорблений, рекламы, и просьб о скорости.

   
      
Показать сообщения:   
Начать новую тему   Ответить на тему   Торрент-трекер -> Горячие новинки-> Зарубежные Новинки (HD*Rip/LQ, DVDRip)Часовой пояс: GMT + 3
Страница 1 из 1
Добавить тему в закладки
 
Вы можете начинать темы
Вы можете отвечать на сообщения
Вы можете редактировать свои сообщения
Вы не можете удалять свои сообщения
Вы можете голосовать в опросах
Вы можете присоединять файлы в этом форуме
Вы можете скачивать файлы в этом форуме