canvas not supported
Нас вместе: 4 343 882
.ADs Start -->.ADs End -->
.ADs Start -->
.ADs End -->

Могучие рейнджеры / Power Rangers (2017) WEB-DLRip [H.264/1080p-LQ] [MVO] [AD]


Присутствует реклама
 
 
RSS
Начать новую тему   Ответить на тему   Торрент-трекер -> Горячие новинки-> Новинки с Рекламой
Полезные
Мои сообщения
Добавить тему в закладки
Torrent activity
Seeders:[ 288  (47,8 MB/s) ]
Leechers:[ 119  (955 KB/s) ]
Предыдущая тема :: Следующая тема 
АвторСообщение
Madbox85 ®

Online
Стаж: 22 дня
Сообщений: 46
Поблагодарили: 4672
17.95%
russia.gif
Сообщение16 Июн 2017 11:02:07  Заголовок сообщения: Могучие рейнджеры / Power Rangers (2017) WEB-DLRip [H.264/1080p-LQ] [MVO] [AD]Ответить с цитатой

Могучие рейнджеры / Power Rangers (2017) WEB-DLRip
Производство: США, Гонконг, Япония, Мексика, Канада, Новая Зеландия
Жанр: Фантастика, Боевик, Приключения

Режиссер: Дин Израэлайт
Актеры: Дакре Монтгомери, Наоми Скотт, АрДжей Сайлер, Луди Линь, Бекки Джи, Элизабет Бэнкс, Брайан Крэнстон, Билл Хейдер, Мэтт Шайвли, Коуди Кирсли

Описание:
Пять обычных старшеклассников узнают, что их маленький город Энджел Гроув и весь мир находятся на грани уничтожения инопланетной угрозой. Избранные судьбой наши герои быстро понимают, что они единственные, кто может спасти планету.


Возраст: 18+ (зрителям, достигшим 18 лет. запрещено для детей)
Рейтинг MPAA: PG-13 (детям до 13 лет просмотр нежелателен)
Дата мировой премьеры: 22 марта 2017
Дата российской премьеры: 23 марта 2017

Продолжительность: 02:05:28
Качество видео: WEB-DLRip
Перевод: Любительский многоголосый (MUZOBOZ)
Субтитры: отсутствуют
Реклама: присутствуют аудио и видео вставки рекламы

Видео: AVC/H.264, 1912x792 (2,40:1), ~4954 Kbps
Аудио: AC3, 2 ch, 384 Kbps

Общее
Уникальный идентификатор : 215967061781922511107076682235795995959 (0xA279BE3DAEF03C3CA2321CD18B5FFD37)
Полное имя : D:\Zona Downloads\Power.Rangers.2017.P.WEB-DL.1O8Op_KOSHARA.mkv
Формат : Matroska
Версия формата : Version 2
Размер файла : 4,68 Гбайт
Продолжительность : 2 ч. 5 м.
Режим общего битрейта : Переменный
Общий поток : 5340 Кбит/сек
Дата кодирования : UTC 2017-06-15 18:30:37
Программа кодирования : mkvmerge v8.3.0 ('Over the Horizon') 64bit
Библиотека кодирования : libebml v1.3.1 + libmatroska v1.4.2

Видео
Идентификатор : 1
Формат : AVC
Формат/Информация : Advanced Video Codec
Профиль формата : High@L4.1
Параметр CABAC формата : Да
Параметр ReFrames формата : 5 кадров
Идентификатор кодека : V_MPEG4/ISO/AVC
Продолжительность : 2 ч. 5 м.
Вид битрейта : Переменный
Битрейт : 4954 Кбит/сек
Максимальный битрейт : 5500 Кбит/сек
Ширина : 1912 пикселей
Высота : 792 пикселя
Соотношение сторон : 2,40:1
Режим частоты кадров : Постоянный
Частота кадров : 23,976 (24000/1001) кадра/сек
Стандарт вещания : Component
Цветовое пространство : YUV
Субдискретизация насыщенности : 4:2:0
Битовая глубина : 8 бит
Тип развёртки : Прогрессивная
Бит/(Пиксели*Кадры) : 0.136
Размер потока : 4,34 Гбайт (93%)
Default : Да
Forced : Нет
Цветовой диапазон : Limited
Основные цвета : BT.709
Характеристики трансфера : BT.709
Коэффициенты матрицы : BT.709

Аудио
Идентификатор : 2
Формат : AC-3
Формат/Информация : Audio Coding 3
Параметр Endianness формата : Big
Идентификатор кодека : A_AC3
Продолжительность : 2 ч. 5 м.
Вид битрейта : Постоянный
Битрейт : 384 Кбит/сек
Каналы : 2 канала
Расположение каналов : Front: L R
Частота : 48,0 КГц
Частота кадров : 31,250 кадров/сек (1536 spf)
Битовая глубина : 16 бит
Метод сжатия : С потерями
Размер потока : 345 Мбайт (7%)
ServiceKind/String : Complete Main
Default : Да
Forced : Нет
Скриншоты:


Все одноименные релизы в Клубе
Время раздачи: Пн-Пт с 18:00 до 23:00, Сб-Вс с 09:00 до 23:30 (до появления первых 3-5 скачавших)
[.name]_Power.Rangers.2017.P.WEB-DL.1O8Op_KOSHARA.mkv.torrent
 Торрент:   Зарегистрирован   Примагнититься
Free Leech
Скачать
12,1 KB
 Зарегистрирован:   16 Июн 2017 11:02:07
 Размер:   4,68 GB  (Вам доступно: не ограничено во время Free Leech) 
 Рейтинг:  4,5 (Голосов: 41)СуперХорошоСреднеТак себеУбил время
 Поблагодарили:  154  Спасибо   (список)
 Проверка:   Оформление проверено модератором 16 Июн 2017 17:05:44
Как cкачать  ·  Как раздать  ·  Правильно оформить  ·  Поднять ратио!  
Вернуться к началу
Посмотреть профиль Отправить личное сообщение Найти релизы
radu121212

Online
Стаж: 5 лет 11 мес.
Сообщений: 163
Ratio: 7,955
0.85%
russia.gif
Сообщение16 Июн 2017 19:12:07  Заголовок сообщения: Ответить с цитатой

перевода бы дубляжа((
Вернуться к началу
Посмотреть профиль Отправить личное сообщение 0
MelomenOne

Online
Стаж: 4 года 7 мес.
Сообщений: 252
Ratio: 3,955
Поблагодарили: 1
100%
ukraine.gif
Сообщение16 Июн 2017 19:55:11  Заголовок сообщения: Ответить с цитатой

Озвучка в принципе норм.
Вернуться к началу
Посмотреть профиль Отправить личное сообщение Найти релизы0
Rosti​sl@v1​3​
Стаж: 7 лет 4 мес.
Сообщений: 822
Ratio: 7,704
Раздал: 13,92 TB
Поблагодарили: 180
100%
ussr.gif
Сообщение16 Июн 2017 19:56:05  Заголовок сообщения: Ответить с цитатой

Что то они долго с этим фильмом, давно уже вышел же...
Вернуться к началу
Посмотреть профиль Отправить личное сообщение ICQ Number Найти релизы0
Видео​монта​ж​
Стаж: 2 года 11 мес.
Сообщений: 139
Ratio: 12,229
Поблагодарили: 7
78.82%
Сообщение16 Июн 2017 20:08:36  Заголовок сообщения: Ответить с цитатой

Миры чувачков в костюмчиках.
Вернуться к началу
Посмотреть профиль Отправить личное сообщение Найти релизы0
Форма быстрого ответа
Внимание!
Мы будем вынуждены лишить Вас права голоса и удалить комментарии, при наличии в них нецензурной брани и оскорблений, рекламы, и просьб о скорости.

   
      
Показать сообщения:   
Начать новую тему   Ответить на тему   Торрент-трекер -> Горячие новинки-> Новинки с РекламойЧасовой пояс: GMT + 3
Страница 1 из 1
Добавить тему в закладки
 
Вы можете начинать темы
Вы можете отвечать на сообщения
Вы можете редактировать свои сообщения
Вы не можете удалять свои сообщения
Вы можете голосовать в опросах
Вы можете присоединять файлы в этом форуме
Вы можете скачивать файлы в этом форуме