canvas not supported
Нас вместе: 4 343 529
.ADs Start -->
.ADs End -->

Затерянный город Z / The Lost City of Z (2016) WEB-DLRip [H.264]


Дублированный (iTunes)
 
 
RSS
Начать новую тему   Ответить на тему   Торрент-трекер -> Горячие новинки-> Зарубежные Новинки (HD*Rip/LQ, DVDRip)
Полезные
Мои сообщения
Добавить тему в закладки
Torrent activity
Seeders:[ 452  (4,28 MB/s) ]
Leechers:[ 33  (196 KB/s) ]
 
  
 
Предыдущая тема :: Следующая тема 
АвторСообщение
Illenorld ®
Стаж: 3 года 8 мес.
Сообщений: 1411
Ratio: 1302,057
Раздал: 44,67 TB
Поблагодарили: 167825
100%
pirates.png
Сообщение20 Июн 2017 17:47:37  Заголовок сообщения: Затерянный город Z / The Lost City of Z (2016) WEB-DLRip [H.264]Ответить с цитатой

Затерянный город Z / The Lost City of Z (2016) WEB-DLRip [H.264]
Производство: США
Жанр: Боевик, драма, приключения, биография, история

Режиссер: Джеймс Грэй
Продюсер: Фелипе Альхуре, Лука Боргезе, Марк Бутан
Актеры: Чарли Ханнэм, Сиенна Миллер, Роберт Паттинсон, Том Холланд (II), Эдвард Эшли, Энгус Макфадьен, Иен МакДермид, Клайв Фрэнсис, Педро Коэльо, Мэтью Сандерлэнд

Описание:
Эльдорадо, таинственная столица инков, загадочный Город Z… Вымысел или реальность? В 1925 году экспедиция полковника Фоссета, члена Королевского Географического общества, бесследно исчезла в джунглях Амазонии в поисках Города Z…


Возраст: 16+ (зрителям, достигшим 16 лет)
Рейтинг MPAA: PG-13 (детям до 13 лет просмотр нежелателен)
Дата мировой премьеры: 15 октября 2016
Дата российской премьеры: 27 апреля 2017, «Парадиз»

Продолжительность: 02:14:58
Качество видео: WEB-DLRip
Перевод: Дублированный (iTunes)
Субтитры: отсутствуют.

Видео: AVC/H.264, 1024x428, ~1480 Kbps
Аудио: AC3, 6 ch, 384 Kbps

The.lost.city.of.Z.2017.WEB-DLRip.AVC.mkv
Формат : Matroska
Версия формата : Version 2
Размер файла : 1,76 Гбайт
Продолжительность : 2 ч. 14 м.
Общий поток : 1864 Кбит/сек
Название фильма : The Lost City of Z 2016 from ExKinoRay
Дата кодирования : UTC 2017-06-20 05:16:23
Программа кодирования : mkvmerge v5.6.0 ('Kenya Kane') built on May 27 2012 16:44:04
Библиотека кодирования : libebml v1.2.3 + libmatroska v1.3.0

Видео
Идентификатор : 1
Формат : AVC
Формат/Информация : Advanced Video Codec
Профиль формата : High@L4.1
Параметр CABAC формата : Да
Параметр ReFrames формата : 11 кадров
Идентификатор кодека : V_MPEG4/ISO/AVC
Продолжительность : 2 ч. 14 м.
Битрейт : 1480 Кбит/сек
Ширина : 1024 пикселя
Высота : 428 пикселей
Соотношение сторон : 2,40:1
Режим частоты кадров : Постоянный
Частота кадров : 25,000 кадров/сек
Цветовое пространство : YUV
Субдискретизация насыщенности : 4:2:0
Битовая глубина : 8 бит
Тип развёртки : Прогрессивная
Бит/(Пиксели*Кадры) : 0.135
Размер потока : 1,36 Гбайт (77%)
Заголовок : Enigma
Библиотека кодирования : x264 core 144 r2525 40bb568
Настройки программы : cabac=1 / ref=11 / deblock=1:-2:-2 / analyse=0x3:0x113 / me=umh / subme=10 / psy=1 / psy_rd=1.00:0.03 / mixed_ref=1 / me_range=32 / chroma_me=1 / trellis=2 / 8x8dct=1 / cqm=0 / deadzone=21,11 / fast_pskip=1 / chroma_qp_offset=-3 / threads=12 / lookahead_threads=3 / sliced_threads=0 / nr=0 / decimate=0 / interlaced=0 / bluray_compat=0 / constrained_intra=0 / bframes=10 / b_pyramid=2 / b_adapt=2 / b_bias=0 / direct=3 / weightb=1 / open_gop=0 / weightp=2 / keyint=250 / keyint_min=25 / scenecut=40 / intra_refresh=0 / rc_lookahead=40 / rc=2pass / mbtree=0 / bitrate=1480 / ratetol=1.0 / qcomp=0.60 / qpmin=0 / qpmax=51 / qpstep=4 / cplxblur=20.0 / qblur=0.5 / vbv_maxrate=50000 / vbv_bufsize=62500 / nal_hrd=none / filler=0 / ip_ratio=1.40 / pb_ratio=1.30 / aq=1:1.00
Язык : English
Default : Да
Forced : Нет
Цветовой диапазон : Limited
Основные цвета : BT.709
Характеристики трансфера : BT.709
Коэффициенты матрицы : BT.709

Аудио
Идентификатор : 2
Формат : AC-3
Формат/Информация : Audio Coding 3
Параметр Endianness формата : Big
Идентификатор кодека : A_AC3
Продолжительность : 2 ч. 14 м.
Вид битрейта : Постоянный
Битрейт : 384 Кбит/сек
Каналы : 6 каналов
Расположение каналов : Front: L C R, Side: L R, LFE
Частота : 48,0 КГц
Частота кадров : 31,250 кадров/сек (1536 spf)
Битовая глубина : 16 бит
Метод сжатия : С потерями
Размер потока : 371 Мбайт (21%)
Заголовок : iTunes
Язык : Russian
ServiceKind/String : Complete Main
Default : Да
Forced : Нет

Меню
00:00:00.000 : en:Глава 1
00:07:40.240 : en:Глава 2
00:14:33.680 : en:Глава 3
00:19:50.680 : en:Глава 4
00:25:42.320 : en:Глава 5
00:31:17.120 : en:Глава 6
00:35:51.200 : en:Глава 7
00:42:47.600 : en:Глава 8
00:47:13.560 : en:Глава 9
00:55:41.360 : en:Глава 10
01:01:43.320 : en:Глава 11
01:07:54.720 : en:Глава 12
01:14:15.160 : en:Глава 13
01:19:22.200 : en:Глава 14
01:26:38.960 : en:Глава 15
01:35:19.999 : en:Глава 16
01:42:32.759 : en:Глава 17
01:48:52.319 : en:Глава 18
01:53:46.799 : en:Глава 19
02:02:57.439 : en:Глава 20
Скриншоты:


Все одноименные релизы в Клубе
Время раздачи: 24/7 (до появления первых 3-5 скачавших)
[.name]_The.lost.city.of.Z.2017.WEB-DLRip.AVC.mkv.torrent
 Торрент:   Зарегистрирован   Примагнититься
Free Leech
Скачать
17,9 KB
 Зарегистрирован:   20 Июн 2017 17:47:37
 Размер:   1,76 GB  (Вам доступно: не ограничено во время Free Leech) 
 Рейтинг:  4,7 (Голосов: 58)СуперХорошоСреднеТак себеУбил время
 Поблагодарили:  385  Спасибо   (список)
 Проверка:   Оформление проверено модератором 20 Июн 2017 20:22:06
Как cкачать  ·  Как раздать  ·  Правильно оформить  ·  Поднять ратио!  
Вернуться к началу
Посмотреть профиль Отправить личное сообщение
Deni78
Стаж: 9 мес. 18 дней
Сообщений: 114
Ratio: 0,77
97.09%
Сообщение20 Июн 2017 22:42:30  Заголовок сообщения: Ответить с цитатой

Отличный фильм очень понравился, смотрите и не ведитесь на негативные комменты.
Вернуться к началу
Посмотреть профиль Отправить личное сообщение 0
BOB2763
Стаж: 6 лет 10 мес.
Сообщений: 534
Ratio: 3,055
18.57%
Samoa.gif
Новое сообщение20 Июн 2017 22:51:12  Заголовок сообщения: Ответить с цитатой

два совершенно разных отзыва.....и кому верить!?
Вернуться к началу
Посмотреть профиль Отправить личное сообщение 0
Sergey2805
Стаж: 7 лет 2 мес.
Сообщений: 322
Ratio: 1,819
100%
Откуда: Белгород
russia.gif
Новое сообщение21 Июн 2017 09:15:17  Заголовок сообщения: Ответить с цитатой

Редко пишу негативные отзывы - но это исключение :( не смотрите это...

_________________
О¯О ¡¡¡ʁɔvʎнdǝʚǝdǝu dиW
Вернуться к началу
Посмотреть профиль Отправить личное сообщение +1
Нравится! (1)
Форма быстрого ответа
Внимание!
Мы будем вынуждены лишить Вас права голоса и удалить комментарии, при наличии в них нецензурной брани и оскорблений, рекламы, и просьб о скорости.

   
      
Показать сообщения:   
Начать новую тему   Ответить на тему   Торрент-трекер -> Горячие новинки-> Зарубежные Новинки (HD*Rip/LQ, DVDRip)Часовой пояс: GMT + 3
Страница 1 из 1
Добавить тему в закладки
 
Вы можете начинать темы
Вы можете отвечать на сообщения
Вы можете редактировать свои сообщения
Вы не можете удалять свои сообщения
Вы можете голосовать в опросах
Вы можете присоединять файлы в этом форуме
Вы можете скачивать файлы в этом форуме