canvas not supported
Нас вместе: 4 345 316

Урфин Джюс и его деревянные солдаты (2016) WEB-DL [H.264/720p-LQ]


 
 
RSS
Начать новую тему   Ответить на тему   Торрент-трекер -> Мультфильмы-> Отечественные Мультфильмы (HD*Rip/LQ, DVDRip, SATRip, VHSRip)
Полезные
Мои сообщения
Добавить тему в закладки
Torrent activity
Seeders:[ 358  (10,7 MB/s) ]
Leechers:[ 24  (405 KB/s) ]
 
  
 
Предыдущая тема :: Следующая тема 
АвторСообщение
dimagor ®
RG Releasers
 
Стаж: 6 лет 7 мес.
Сообщений: 1137
Ratio: 401,504
Поблагодарили: 222665
100%
russia.gif
Сообщение22 Июн 2017 13:29:32  Заголовок сообщения: Урфин Джюс и его деревянные солдаты (2016) WEB-DL [H.264/720p-LQ]Ответить с цитатой Обратить внимание модераторов

Урфин Джюс и его деревянные солдаты (2016) WEB-DL [H.264/720p-LQ]
Производство: Россия
Жанр: Приключения

Режиссер: Владимир Торопчин, Федор Дмитриев, Дарина Шмидт

Описание:
Коварный и злобный Урфин Джюс решил стать повелителем Волшебной страны, захватить Изумрудный город при помощи своих солдат-дуболомов и переименовать его в Урфинград. Он уже готовится праздновать победу, но в дело вмешивается самая обычная девочка Элли, которая оказалась в Волшебной стране в самое подходящее время. Ей очень нужно вернуться домой, но прежде она должна помочь своим друзьям Страшиле, Дровосеку и Льву победить Урфина и его армию.


Возраст: 0+ (для любой зрительской аудитории)
Дата российской премьеры: 20 апреля 2017, «Наше Кино»

Релиз от: iTunes

Продолжительность: 01:27:22
Качество видео: WEB-DL
Субтитры: отсутствуют

Видео: AVC/H.264, 1280x536 @ 960x536, ~3991 Kbps
Аудио: AC3, 6 ch, 384 Kbps

Общее
Уникальный идентификатор : 238596798520432566897395545331600971500 (0xB38012676B2ABCE79135626C51C7D6EC)
Полное имя : D:\FILMЬl\Urfin.Juce.I.Soldatii.720P.mkv
Формат : Matroska
Версия формата : Version 2
Размер файла : 2,67 Гбайт
Продолжительность : 1 ч. 27 м.
Общий поток : 4377 Кбит/сек
Дата кодирования : UTC 2017-06-21 20:39:18
Программа кодирования : mkvmerge v8.3.0 ('Over the Horizon') 64bit
Библиотека кодирования : libebml v1.3.1 + libmatroska v1.4.2

Видео
Идентификатор : 1
Формат : AVC
Формат/Информация : Advanced Video Codec
Профиль формата : Main@L3.1
Параметр CABAC формата : Нет
Параметр ReFrames формата : 2 кадра
Идентификатор кодека : V_MPEG4/ISO/AVC
Продолжительность : 1 ч. 27 м.
Битрейт : 3991 Кбит/сек
Ширина : 960 пикселей
Высота : 536 пикселей
Соотношение сторон : 2,40:1
Режим частоты кадров : Постоянный
Частота кадров : 25,000 кадров/сек
Цветовое пространство : YUV
Субдискретизация насыщенности : 4:2:0
Битовая глубина : 8 бит
Тип развёртки : Прогрессивная
Бит/(Пиксели*Кадры) : 0.310
Размер потока : 2,44 Гбайт (91%)
Язык : English
Default : Да
Forced : Нет
Цветовой диапазон : Limited
Основные цвета : BT.709
Характеристики трансфера : BT.709
Коэффициенты матрицы : BT.709

Аудио
Идентификатор : 2
Формат : AC-3
Формат/Информация : Audio Coding 3
Параметр Endianness формата : Big
Идентификатор кодека : A_AC3
Продолжительность : 1 ч. 27 м.
Вид битрейта : Постоянный
Битрейт : 384 Кбит/сек
Каналы : 6 каналов
Расположение каналов : Front: L C R, Side: L R, LFE
Частота : 48,0 КГц
Частота кадров : 31,250 кадров/сек (1536 spf)
Битовая глубина : 16 бит
Метод сжатия : С потерями
Размер потока : 240 Мбайт (9%)
Язык : Russian
ServiceKind/String : Complete Main
Default : Да
Forced : Нет

Меню
00:00:00.000 : en:Глава 1
00:09:02.480 : en:Глава 2
00:14:50.880 : en:Глава 3
00:20:25.080 : en:Глава 4
00:25:25.240 : en:Глава 5
00:29:04.640 : en:Глава 6
00:33:38.360 : en:Глава 7
00:38:22.160 : en:Глава 8
00:45:05.880 : en:Глава 9
00:51:37.120 : en:Глава 10
00:56:42.640 : en:Глава 11
01:02:28.200 : en:Глава 12
01:08:13.640 : en:Глава 13
01:13:31.600 : en:Глава 14
01:19:09.320 : en:Глава 15
Скриншоты:


Все одноименные релизы в Клубе
Время раздачи: С 09:00 до 23:30 (до появления первых 3-5 скачавших)
[.name]_Urfin.Juce.I.Soldatii.720P.mkv.torrent
 Торрент: Бронзовая раздача  Зарегистрирован   Примагнититься
Free Leech
Скачать
13,5 KB
 Зарегистрирован:   22 Июн 2017 13:29:32
 Размер:   2,67 GB  (Вам доступно: не ограничено во время Free Leech) 
 Рейтинг:  4,6 (Голосов: 65)СуперХорошоСреднеТак себеУбил время
 Поблагодарили:  437  Спасибо   (список)
 Проверка:   Оформление проверено модератором 23 Июн 2017 13:32:55
Как cкачать  ·  Как раздать  ·  Правильно оформить  ·  Поднять ратио!  
Вернуться к началу
Посмотреть профиль Отправить личное сообщение Найти релизы
dimagor ®
RG Releasers
 
Стаж: 6 лет 7 мес.
Сообщений: 1137
Ratio: 401,504
Поблагодарили: 222665
100%
russia.gif
Сообщение22 Июн 2017 13:37:47  Заголовок сообщения: Ответить с цитатой Обратить внимание модераторов

Вернуться к началу
Посмотреть профиль Отправить личное сообщение Найти релизы0
serfar
 
Стаж: 7 лет 3 мес.
Сообщений: 614
Ratio: 3,628
10.66%
Откуда: 11ru
ussr.gif
Сообщение23 Июн 2017 14:01:31  Заголовок сообщения: Ответить с цитатой Обратить внимание модераторов

Ух ты! Одна из любимейших книжек детства. Посмотрим
Вернуться к началу
Посмотреть профиль Отправить личное сообщение Посетить сайт автора +1
Нравится! (1)
Strun​etsAF​63​
Стаж: 8 лет
Сообщений: 784
Ratio: 91,461
Поблагодарили: 400
100%
ussr.gif
Сообщение23 Июн 2017 14:09:09  Заголовок сообщения: Ответить с цитатой Обратить внимание модераторов

serfar писал(а): Перейти к сообщению
Ух ты! Одна из любимейших книжек детства. Посмотрим


К тому ж отечественного производства! Радует! Родное кино!

_________________
Рождённый в СССР!
Вернуться к началу
Посмотреть профиль Отправить личное сообщение Skype ICQ Number Найти релизы+1
Нравится! (1)
WalterVI
Стаж: 6 лет 11 мес.
Сообщений: 244
Ratio: 4,231
80.48%
burundi.gif
Сообщение23 Июн 2017 14:42:03  Заголовок сообщения: Ответить с цитатой Обратить внимание модераторов

Сперва нужно прочитать книжку, ну а потом посмотреть что сотворили мультипликаторы.
Именно читать, а не слушать готовое.
Вернуться к началу
Посмотреть профиль Отправить личное сообщение +1
Нравится! (1)
ZipperZ
Стаж: 3 года 3 мес.
Сообщений: 37
Ratio: 2,141
31.27%
kazakhstan.gif
Сообщение23 Июн 2017 14:58:26  Заголовок сообщения: Ответить с цитатой Обратить внимание модераторов

Книги Волкова были шедеврами моего детства!
Вернуться к началу
Посмотреть профиль Отправить личное сообщение +2
Нравится! (2)
Sevolgin
Стаж: 21 день
Сообщений: 2
Ratio: 24,206
Сообщение23 Июн 2017 15:16:38  Заголовок сообщения: Ответить с цитатой Обратить внимание модераторов

Вот если бы с рисунками Владимирского сделали... оживили бы его иллюстрации...
Вернуться к началу
Посмотреть профиль Отправить личное сообщение +1
Нравится! (1)
faccgoo
Стаж: 1 мес. 7 дней
Сообщений: 9
Ratio: 34,628
100%
Сообщение23 Июн 2017 15:20:39  Заголовок сообщения: Ответить с цитатой Обратить внимание модераторов

Ну наконец то! Я уж думал забыли...
Вернуться к началу
Посмотреть профиль Отправить личное сообщение 0
boikoiv
Стаж: 3 года 8 мес.
Сообщений: 29
Ratio: 3,044
49.36%
Сообщение23 Июн 2017 16:34:24  Заголовок сообщения: Ответить с цитатой Обратить внимание модераторов

Спасибо
Вернуться к началу
Посмотреть профиль Отправить личное сообщение 0
Форма быстрого ответа
Внимание!
Мы будем вынуждены лишить Вас права голоса и удалить комментарии, при наличии в них нецензурной брани и оскорблений, рекламы, и просьб о скорости.

   
      
Показать сообщения:   
Начать новую тему   Ответить на тему   Торрент-трекер -> Мультфильмы-> Отечественные Мультфильмы (HD*Rip/LQ, DVDRip, SATRip, VHSRip)Часовой пояс: GMT + 3
Страница 1 из 1
Добавить тему в закладки
 
Вы можете начинать темы
Вы можете отвечать на сообщения
Вы можете редактировать свои сообщения
Вы не можете удалять свои сообщения
Вы можете голосовать в опросах
Вы можете присоединять файлы в этом форуме
Вы можете скачивать файлы в этом форуме