canvas not supported
Нас вместе: 4 251 067

Орел и решка. Перезагрузка (2017.11.12) WEB-DL [H.264/1080p-LQ] (сезон 14: Ибица. Испания)


Выпуск 33: Ибица. Испания
 
 
RSS
Начать новую тему   Ответить на тему   Торрент-трекер -> Документалистика и Телепередачи-> Клуб кинопутешествий
Полезные
Мои сообщения
Добавить тему в закладки
Torrent activity
Seeders:[ 3  (0 B/s) ]
Leechers:[ 0  (0 B/s) ]
Предыдущая тема :: Следующая тема 
АвторСообщение
svlesin ®
Модератор Документалистики/TV
RG Releasers
Релизер 25000+ Uploader 300+
 
Стаж: 8 лет
Сообщений: 33443
Ratio: 1559,141
Поблагодарили: 3192453
100%
russia.gif
Сообщение12 Ноя 2017 15:12:58  Орел и решка. Перезагрузка (2017.11.12) WEB-DL [H.264/1080p-LQ] (сезон 14: Ибица. Испания)Ответить с цитатой

Орел и решка. Перезагрузка (2017.11.12) WEB-DL [H.264/1080p-LQ] (сезон 14: Ибица. Испания)
Телекомпания: ИНТЕР
Жанр: Реалити-шоу, путешествия, география, познавательный

Ведущий: Настя Ивлеева и Антон Птушкин

Описание:
Шесть лет назад команда проекта "Орел и решка" впервые отправилась в большое путешествие по самым интересным городам нашей планеты. За прошедшее время в них столько всего изменилось, что создатели шоу решили приехать сюда снова. "Орел и решка" объявляет перезагрузку! Телезрителей ждет встреча с невиданными чудесами, новыми незабываемыми впечатлениями и самое главное - с новыми ведущими!


Возраст: 12+ (зрителям, достигшим 12 лет)

Релиз от: svlesin
Продолжительность: ~ 00:53:31
Качество видео: WEB-DL
Субтитры: Отсутствуют

Видео: AVC, 1920x1080 (16:9), 25.000 fps, 3 687 Kbps (0.071 bit/pixel)
Аудио: AC-3, 44.1 KHz, 2 ch, 192 Kbps, CBR
Код: выделить все
 Общее
Уникальный идентификатор                 : 219578214802795743038701524941124280037 (0xA53139D4BD04DF22A7D66F02DB021EE5)
Полное имя                               : D:\[1]\Орел и решка\Орел и решка. Перезагрузка (2017.11.12)_1080 - Ибица. Испания.mkv
Формат                                   : Matroska
Версия формата                           : Version 4 / Version 2
Размер файла                             : 1,48 Гбайт
Продолжительность                        : 53 м.
Общий поток                              : 3957 Кбит/сек
Название фильма                          : Орел и решка. Перезагрузка (2017.11.12)_1080 - Ибица. Испания_gr-crystal.com
Дата кодирования                         : UTC 2017-11-12 11:51:06
Программа кодирования                    : mkvmerge v17.0.0 ('Be Ur Friend') 64-bit
Библиотека кодирования                   : libebml v1.3.5 + libmatroska v1.4.8
Attachements                             : gr-crystal.com.png
DURATION                                 : 00:53:31.146000000
NUMBER_OF_FRAMES                         : 92195
NUMBER_OF_BYTES                          : 77067492
_STATISTICS_WRITING_APP                  : mkvmerge v17.0.0 ('Be Ur Friend') 64-bit
_STATISTICS_WRITING_DATE_UTC             : 2017-11-12 11:51:06
_STATISTICS_TAGS                         : BPS DURATION NUMBER_OF_FRAMES NUMBER_OF_BYTES

Видео
Идентификатор                            : 1
Формат                                   : AVC
Формат/Информация                        : Advanced Video Codec
Профиль формата                          : High@L4
Параметр CABAC формата                   : Да
Параметр ReFrames формата                : 2 кадра
Идентификатор кодека                     : V_MPEG4/ISO/AVC
Продолжительность                        : 53 м.
Битрейт                                  : 3687 Кбит/сек
Ширина                                   : 1920 пикселей
Высота                                   : 1080 пикселей
Соотношение сторон                       : 16:9
Режим частоты кадров                     : Постоянный
Частота кадров                           : 25,000 кадров/сек
Цветовое пространство                    : YUV
Субдискретизация насыщенности            : 4:2:0
Битовая глубина                          : 8 бит
Тип развёртки                            : Прогрессивная
Бит/(Пиксели*Кадры)                      : 0.071
Размер потока                            : 1,38 Гбайт (93%)
Default                                  : Да
Forced                                   : Нет
Цветовой диапазон                        : Limited
Основные цвета                           : BT.709
Характеристики трансфера                 : BT.709
Коэффициенты матрицы                     : BT.709

Аудио
Идентификатор                            : 2
Формат                                   : AC-3
Формат/Информация                        : Audio Coding 3
Расширение режима                        : CM (complete main)
Параметр Endianness формата              : Big
Идентификатор кодека                     : A_AC3
Продолжительность                        : 53 м.
Вид битрейта                             : Постоянный
Битрейт                                  : 192 Кбит/сек
Каналы                                   : 2 канала
Расположение каналов                     : Front: L R
Частота                                  : 44,1 КГц
Битовая глубина                          : 16 бит
Метод сжатия                             : С потерями
Размер потока                            : 73,5 Мбайт (5%)
Default                                  : Да
Forced                                   : Нет
 
Орёл и Решка. Перезагрузка на никогда не скучающей Ибице, Испания! Ибица – самый модный курорт Европы, живописный остров в Средиземном море. Ее называют островом любви, островом наслаждений и островом круглосуточного веселья, переходящего в «отрыв»! Настя Ивлеева и Антон Птушкин просто обязаны были вернуть вас сюда! Здесь мы посетили самые яркие вечеринки, покуражились на бассейн-пати, оттянулись в одном из самых крутых ночных клубов мира и сняли для богатого ведущего целый остров миллионеров - Тагомаго. Так же мы проверили несколько лайф-хаков для бюджетных туристов: как и на чем можно сэкономить на этом жутко дорогом курорте.
Скриншоты:



Все одноименные релизы в Клубе
Время раздачи: 24/7. До первых 5 скачавших.
 !  Внимание!
В соответствии с правилами трекера, имеются ограничения на скачивание файлов.
Ограничения касаются соотношения (ratio) скачанного и отданного, а так же количества закачек.

Пожалуйста, помните о том, что принцип трекера - это не только скачивать, но и отдавать.

Дополнительно: Эффективно раздаем и качаем;быстро поднять рейтинг
[.name]_Orel i reshka. Perezagruzka (2017.11.12)_1080 - Ibitsa. Ispaniya.mkv.torrent
 Торрент: Платиновая раздача  Зарегистрирован Скачать
15 KB
Free Leech
  Примагнититься
 Зарегистрирован:   12 Ноя 2017 15:12:58
 Размер:   1,48 GB  (Вам доступно: не ограничено во время Free Leech) 
 Рейтинг:  3,4 (Голосов: 14)СуперХорошоСреднеТак себеУбил время
 Поблагодарили:  48  Спасибо   (список)
 Проверка:   Оформление проверено модератором 12 Ноя 2017 15:14:00

Яндекс кошелек для желающих отблагодарить за мой труд и на upgrade компьютера 410014577238543
Как cкачать  ·  Как раздать  ·  Правильно оформить  ·  Поднять ратио!  
Вернуться к началу
Посмотреть профиль Отправить личное сообщение Найти релизы
маринасочи
Стаж: 4 года 4 мес.
Сообщений: 1182
Ratio: 2,937
90.74%
Сообщение12 Ноя 2017 21:21:30  Ответить с цитатой

просто класс Браво!
Вернуться к началу
Посмотреть профиль Отправить личное сообщение 0
Показать сообщения:   
Начать новую тему   Ответить на тему   Торрент-трекер -> Документалистика и Телепередачи-> Клуб кинопутешествийЧасовой пояс: GMT + 3
Страница 1 из 1
Добавить тему в закладки
 
Вы не можете начинать темы
Вы не можете отвечать на сообщения
Вы не можете редактировать свои сообщения
Вы не можете удалять свои сообщения
Вы можете голосовать в опросах
Вы можете присоединять файлы в этом форуме
Вы можете скачивать файлы в этом форуме