canvas not supported
Нас вместе: 4 347 494
.ADs End -->
.ADs End -->

Бобик в гостях у Барбоса (1977) DVDRip [H.264] [Реставрация]


 
 
RSS
Начать новую тему   Ответить на тему   Торрент-трекер -> Мультфильмы-> Отечественные Мультфильмы для детей
АвторСообщение
Гошка_Я ®
Стаж: 5 лет 7 мес.
Сообщений: 204
Ratio: 77,965
Поблагодарили: 23231
100%
russia.gif
Бобик в гостях у Барбоса (1977) DVDRip [H.264] [Реставрация]
Русское название: Бобик в гостях у Барбоса
Год выпуска: 1977
Жанр: Рисованная анимация, Детский
Реставрация: «Крупный план», 2009 год.
Продолжительность: 00:08:36
Режиссер: Владимир Попов
Персонажи: Юрий Никулин - Бобик, Олег Табаков - Барбос, Евгений Моргунов - Дедушка.

Описание фильма:
История мультфильма рассказывает о двух псах — Бобике и Барбосе, которые устраивают настоящую вечеринку, в то время, как хозяин Барбоса находится вне дома. Барбос строит из себя хозяина квартиры: бесцеремонно опустошает холодильник, устраивает катание на пролитом киселе по полу, заявляя: «А что мне дедушка? Здесь всё моё!» и «А если дедушка не слушается, то я его веником», в общем, всячески пытается поразить Бобика. Сложно и представить, в какой хаос и разруху превращается тихий-мирный домик, после того, как два пёсика «немного повеселились». Разгромив всё, что только можно, герои ложатся спать на дедушкину кровать, и им снится сон, в котором они ведут дедушку, хозяина Барбоса, на поводке и поют песню «Человек собаке друг!»



Качество видео: DVDRip
Видеокодек: MPEG-4 AVC/H.264
Битрейт видео: ~2 299 Kbps
Размер кадра: 716x576 @ 764 x 576, 4:3, 25 fps
Аудиокодек: AC3, 48 000 Hz, 6ch
Битрейт аудио: 448 Kbps
General
Unique ID : 178516455423394425410556128424460323630 (0x864D04C9F44EA902B55C1C10953C8B2E)
Complete name : D:\_My Releases\Бобик в гостях у Барбоса 1977\Bobik_v_gostyah_u_Barbosa_(1977)_[H.264]_DVDRip_[].mkv
Format : Matroska
Format version : Version 2
File size : 172 MiB
Duration : 8mn 36s
Overall bit rate : 2 803 Kbps
Encoded date : UTC 2011-12-06 21:05:26
Writing application : mkvmerge v5.0.1 ('Es ist Sommer') built on Oct 9 2011 11:55:43
Writing library : libebml v1.2.2 + libmatroska v1.3.0

Video
ID : 1
Format : AVC
Format/Info : Advanced Video Codec
Format profile : High@L4.0
Format settings, CABAC : Yes
Format settings, ReFrames : 16 frames
Codec ID : V_MPEG4/ISO/AVC
Duration : 8mn 36s
Bit rate : 2 299 Kbps
Width : 716 pixels
Height : 576 pixels
Display aspect ratio : 4:3
Frame rate : 25.000 fps
Color space : YUV
Chroma subsampling : 4:2:0
Bit depth : 8 bits
Scan type : Progressive
Bits/(Pixel*Frame) : 0.223
Stream size : 141 MiB (82%)
Title : Nyc-2008 /  .org / RG Multfilmy
Writing library : x264 core 119 r2106kMod 07efeb4
Encoding settings : cabac=1 / ref=16 / deblock=1:0:0 / analyse=0x3:0x113 / me=umh / subme=11 / psy=1 / fade_compensate=0.00 / psy_rd=1.00:0.10 / mixed_ref=1 / me_range=24 / chroma_me=1 / trellis=2 / 8x8dct=1 / cqm=0 / deadzone=21,11 / fast_pskip=0 / chroma_qp_offset=-3 / threads=6 / sliced_threads=0 / nr=0 / decimate=1 / interlaced=0 / bluray_compat=0 / constrained_intra=0 / bframes=8 / b_pyramid=2 / b_adapt=2 / b_bias=0 / direct=1 / weightb=1 / open_gop=0 / weightp=2 / keyint=250 / keyint_min=25 / scenecut=40 / intra_refresh=0 / rc_lookahead=60 / rc=crf / mbtree=1 / crf=20.4900 / qcomp=0.60 / qpmin=0 / qpmax=69 / qpstep=4 / ip_ratio=1.40 / aq=2:1.00
Language : Russian
Default : Yes
Forced : Yes

Audio
ID : 2
Format : AC-3
Format/Info : Audio Coding 3
Mode extension : CM (complete main)
Codec ID : A_AC3
Duration : 8mn 36s
Bit rate mode : Constant
Bit rate : 448 Kbps
Channel(s) : 6 channels
Channel positions : Front: L C R, Side: L R, LFE
Sampling rate : 48.0 KHz
Bit depth : 16 bits
Compression mode : Lossy
Stream size : 27.6 MiB (16%)
Language : Russian
Default : Yes
Forced : Yes
Скриншоты:


Бобик в гостях у Барбоса на NNM-club

Смотрите также Барбос в гостях у Бобика

Время раздачи: 24 / 7 до 10 скачавших. Раздаю за «СПАСИБО»
Bobik_v_gostyah_u_Barbosa_(1977)_[H.264]_DVDRip_[].mkv.torrent
 Торрент: Платиновая раздача  Зарегистрирован
 
Примагнититься

Скачать
 Зарегистрирован:   29 Июл 2012 20:08:06
 Размер:   172 MB  (
 Рейтинг:  4,9 (Голосов: 97)
 Поблагодарили:  333
 Проверка:   Оформление проверено модератором 29 Июл 2012 22:21:33
Как cкачать  ·  Как раздать  ·  Правильно оформить  ·  Поднять ратио!  

_________________
Чем хорош NNM-club?
Тем, что только здесь, шедевры советского и отечественного кинематографа раздаются просто так, за «СПАСИБО».
Мои релизы
doctor75
Стаж: 7 лет 1 мес.
Сообщений: 169
Ratio: 6,759
1.72%
Размер кадра: 716x576 @ 764 x 576 - странное соотношение сторон...

_________________
Спорить с тренером по борьбе может
только тренер по стрельбе.
Гошка_Я ®
Стаж: 5 лет 7 мес.
Сообщений: 204
Ratio: 77,965
Поблагодарили: 23231
100%
russia.gif
doctor75
Соотношение сторон указано четко 4:3
Скорее всего вас смущает указание размера кадра, аж два раза.
@ 764 x 576 - анаморф или анаморфирование изображения, размер картинки на экране (пример скриншоты)
Ash67
Стаж: 6 лет 3 мес.
Сообщений: 229
Ratio: 57,95
Поблагодарили: 5985
100%
Откуда: Санкт​-Пете​рбург​
russia.gif
— А дедушка где спит?
— Какой дедушка? Ах, дедушка… А, там, в прихожей, на коврике…

Шедевр просто! Потрясающий мульт!.. :подмигивание:
valiver
Стаж: 6 лет
Сообщений: 43
Ratio: 1835,612
100%
Лапу первым подает, лапу первым подает. =)
ladadem
Стаж: 4 года 4 мес.
Сообщений: 5
Ratio: 0,98
40%
Откуда: Росто​в-на-​Дону​
russia.gif
Огромное спасибо за мульт! Качество- великолепное!!! Смотрим с удовольствием вместе с дочкой и бабушкой!

_________________
Планшеты, телефоны и прочее по оптовым ценам
Показать сообщения:   
Начать новую тему   Ответить на тему   Торрент-трекер -> Мультфильмы-> Отечественные Мультфильмы для детейЧасовой пояс: GMT + 3
Страница 1 из 1